<?xml version="1.0" standalone="no"?>
<!DOCTYPE svg PUBLIC "-//W3C//DTD SVG 1.1//EN" "http://www.w3.org/Graphics/SVG/1.1/DTD/svg11.dtd" >
<svg xmlns="http://www.w3.org/2000/svg">
<metadata>Generated by IcoMoon</metadata>
<defs>
<font id="icomoon" horiz-adv-x="1024">
<font-face units-per-em="1024" ascent="960" descent="-64" />
<missing-glyph horiz-adv-x="1024" />
<glyph unicode="&#x20;" horiz-adv-x="512" d="" />
<glyph unicode="&#xe900;" glyph-name="info-circle" d="M460.796 192.012h102.395v307.184h-102.395v-307.184zM511.994 959.974c-282.61 0-511.974-229.364-511.974-511.974s229.364-511.974 511.974-511.974c282.61 0 511.974 229.364 511.974 511.974s-229.364 511.974-511.974 511.974zM511.994 38.421c-225.781 0-409.579 183.798-409.579 409.579s183.798 409.579 409.579 409.579c225.781 0 409.579-183.798 409.579-409.579s-183.798-409.579-409.579-409.579zM460.796 601.593h102.395v102.395h-102.395v-102.395z" />
<glyph unicode="&#xe901;" glyph-name="download" d="M933.64 598.588h-240.941v361.412h-361.412v-361.412h-240.941l421.647-421.647 421.647 421.647zM90.346 56.471v-120.471h843.294v120.471h-843.294z" />
<glyph unicode="&#xe902;" glyph-name="document" horiz-adv-x="819" d="M102.4 960c-56.32 0-101.888-46.080-101.888-102.4l-0.512-819.2c0-56.32 45.568-102.4 101.888-102.4h614.912c56.32 0 102.4 46.080 102.4 102.4v614.4l-307.2 307.2h-409.6zM460.8 601.6v281.6l281.6-281.6h-281.6z" />
<glyph unicode="&#xe903;" glyph-name="ic_insert_link" horiz-adv-x="2048" d="M194.56 448c0 175.104 142.336 317.44 317.44 317.44h409.6v194.56h-409.6c-282.624 0-512-229.376-512-512s229.376-512 512-512h409.6v194.56h-409.6c-175.104 0-317.44 142.336-317.44 317.44v0zM614.4 345.6h819.2v204.8h-819.2v-204.8zM1536 960h-409.6v-194.56h409.6c175.104 0 317.44-142.336 317.44-317.44s-142.336-317.44-317.44-317.44h-409.6v-194.56h409.6c282.624 0 512 229.376 512 512s-229.376 512-512 512v0z" />
<glyph unicode="&#xe904;" glyph-name="alert" d="M993.635 223.675l-338.222 601.236c-36.311 64.532-87.243 100.043-143.415 100.043-56.222 0-107.153-35.511-143.459-100.043l-338.176-601.236c-36.133-64.266-40.133-126.803-11.288-176.17 28.844-49.288 85.376-76.444 159.104-76.444h667.636c73.777 0 130.262 27.155 159.104 76.444 28.844 49.333 24.844 111.908-11.288 176.17h0.004zM937.014 87.281c-13.956-23.822-47.155-37.422-91.154-37.422h-667.636c-43.999 0-77.244 13.689-91.154 37.422-13.956 23.867-9.556 59.511 11.955 97.822l338.176 601.236c21.466 38.089 48.709 59.91 74.843 59.91s53.377-21.822 74.754-59.91l338.176-601.236c21.555-38.311 25.91-73.955 12.045-97.822h-0.005zM512 252.517c-28.622 0-51.821-23.2-51.821-51.821 0-28.665 23.2-51.91 51.821-51.91 28.665 0 51.866 23.2 51.866 51.91 0 28.577-23.2 51.821-51.866 51.821zM512 628.16c-28.622 0-51.821-23.2-51.821-51.821 0-1.556 0.311-2.933 0.399-4.4h-0.266l20.666-251.148h0.178c1.333-15.91 14.577-28.532 30.843-28.532 16.311 0 29.511 12.577 30.888 28.532h0.178l20.666 251.148h-0.266c0.133 1.467 0.399 2.845 0.399 4.4 0 28.577-23.2 51.821-51.866 51.821h0.001z" />
<glyph unicode="&#xe905;" glyph-name="minus" d="M1023.967 388.484h-1023.936v119.032h1023.936v-119.032z" />
<glyph unicode="&#xe906;" glyph-name="Twitter-X" horiz-adv-x="1399" d="M282.022 840.718l323.998-433.216-326.044-352.223h73.379l285.451 308.376 230.637-308.376h249.713l-342.228 457.584 303.479 327.855h-73.379l-262.886-284.009-212.407 284.009h-249.713zM389.932 786.667h114.719l506.579-677.328h-114.719l-506.579 677.328z" />
<glyph unicode="&#xe907;" glyph-name="bluesky" horiz-adv-x="1159" d="M251.302 891.175c132.896-100.068 275.753-303.147 328.278-412.045 52.524 108.898 195.382 311.751 328.278 412.045 95.993 72.221 251.302 128.141 251.302-49.808s-20.376-298.393-32.149-340.956c-41.431-148.291-192.212-186.099-326.24-163.233 234.549-40.073 294.092-172.516 165.271-305.185-244.51-251.755-351.597 63.165-378.991 143.989-7.924 23.319-6.792 23.772-14.942 0-27.394-80.598-134.254-395.744-378.991-143.989-128.821 132.669-69.278 265.113 165.271 305.185-134.028-22.866-284.809 14.942-326.24 163.233-11.773 42.563-32.149 305.411-32.149 340.956 0 177.723 155.309 122.029 251.302 49.808z" />
<glyph unicode="&#xe909;" glyph-name="arrow-down-left" d="M120.312 799.064l116.735-0.055-0.237-543.638 584.639 584.639 82.542-82.542-584.639-584.639 543.607 0.27 0.055-116.735-743.010-0.346z" />
<glyph unicode="&#xe90a;" glyph-name="arrow-down-right" d="M903.67 799.048l-116.731-0.055 0.237-543.614-584.621 584.621-82.538-82.538 584.621-584.621-543.59 0.269-0.055-116.731 742.985-0.346z" />
<glyph unicode="&#xe90b;" glyph-name="arrow-down" d="M1023.996 448.457l-80.506 80.43-374.594-374.911v806.020h-113.793v-806.020l-374.558 374.911-80.506-80.43 511.96-512.419z" />
<glyph unicode="&#xe90c;" glyph-name="arrow-left" d="M512.441-63.996l80.397 80.506-374.924 374.594h806.048v113.757h-806.048l374.924 374.594-80.397 80.506-512.437-511.998z" />
<glyph unicode="&#xe90d;" glyph-name="arrow-right" d="M511.559 959.996l-80.397-80.506 374.924-374.594h-806.048v-113.757h806.048l-374.924-374.594 80.397-80.506 512.437 511.998z" />
<glyph unicode="&#xe90e;" glyph-name="arrow-up-left" d="M120.373 96.968l116.694 0.075-0.237 543.628 584.601-584.628 82.504 82.507-584.601 584.628 543.604-0.237 0.075 116.699-742.999 0.318z" />
<glyph unicode="&#xe90f;" glyph-name="arrow-up-right" d="M903.627 96.968l-116.694 0.075 0.237 543.628-584.601-584.628-82.504 82.507 584.601 584.628-543.604-0.237-0.075 116.699 742.999 0.318z" />
<glyph unicode="&#xe910;" glyph-name="arrow-up" d="M0.004 447.559l80.506-80.397 374.594 374.924v-806.048h113.757v806.048l374.594-374.924 80.506 80.397-511.998 512.437z" />
<glyph unicode="&#xe914;" glyph-name="bell" d="M632.506 49.813c0-62.871-53.916-113.791-120.489-113.791s-120.489 50.92-120.489 113.791v0zM511.999 959.978c198.782 0 361.425-153.604 361.425-341.339v0-312.854l150.571-199.098h-1023.957l150.571 199.098v312.854c0 187.734 162.643 341.339 361.387 341.339z" />
<glyph unicode="&#xe915;" glyph-name="bin" d="M860.397 703.946v-753.756c0-14.089-11.196-14.187-24.892-14.187v0h-647.090c-13.665 0-24.892 0.099-24.892 14.187v0 753.756h696.876zM462.204 550.39h-49.786v-409.592h49.786v409.592zM611.53 550.39h-49.786v-409.592h49.786v409.592zM621.837 959.966l99.54-102.415h163.922c13.698 0 24.892-22.931 24.892-37.020v0-65.362h-796.416v65.362c0 14.089 11.196 37.020 24.892 37.020v0h163.89l99.54 102.415h219.739zM601.21 908.758h-178.486l-49.786-51.208h278.058l-49.786 51.208z" />
<glyph unicode="&#xe916;" glyph-name="calendar" d="M358.41 499.2h-102.4v-102.4h102.4v102.4zM563.21 499.2h-102.4v-102.4h102.4v102.4zM768.010 499.2h-102.4v-102.4h102.4v102.4zM870.41 857.6h-51.2v102.4h-102.4v-102.4h-409.6v102.4h-102.4v-102.4h-51.2c-56.832 0-101.888-46.080-101.888-102.4l-0.512-716.8c0-56.32 45.568-102.4 102.4-102.4h716.8c56.32 0 102.4 46.080 102.4 102.4v716.8c0 56.32-46.080 102.4-102.4 102.4zM870.41 38.4h-716.8v563.2h716.8v-563.2z" />
<glyph unicode="&#xe918;" glyph-name="chevron-down" d="M511.996 345.608l409.59 409.59 102.398-102.398-511.988-511.988-511.988 511.988 102.398 102.398z" />
<glyph unicode="&#xe919;" glyph-name="chevron-left" d="M409.608 448.004l409.59-409.59-102.398-102.398-511.988 511.988 511.988 511.988 102.398-102.398z" />
<glyph unicode="&#xe91a;" glyph-name="chevron-right" d="M614.392 447.996l-409.59 409.59 102.398 102.398 511.988-511.988-511.988-511.988-102.398 102.398z" />
<glyph unicode="&#xe91b;" glyph-name="chevron-up" d="M512.004 550.392l-409.59-409.59-102.398 102.398 511.988 511.988 511.988-511.988-102.398-102.398z" />
<glyph unicode="&#xe925;" glyph-name="email" d="M1023.996 579.753v-428.862c0-12.578-11.548-22.861-25.604-22.861v0h-972.783c-14.056 0-25.571 10.281-25.571 22.861v0 428.862l511.978-228.571 511.978 228.571zM998.392 768.004c14.056 0 25.604-10.311 25.604-22.861v0-63.189l-511.978-228.542-511.978 228.542v63.189c0 12.55 11.515 22.861 25.571 22.861v0z" />
<glyph unicode="&#xe926;" glyph-name="eye-Closed" d="M138.643 903.078l819.148-836.255-72.389-73.935-178.796 182.529c-62.392-26.576-127.49-41.027-194.568-41.027-193.776 0-371.647 117.554-512.004 313.591 66.583 92.933 141.644 167.878 222.744 221.367v0l-156.525 159.793 72.389 73.935zM335.784 553.984c-18.015-31.056-28.54-67.232-28.54-106.002 0-115.467 91.658-209.073 204.795-209.073 37.944 0 73.313 10.813 103.767 29.238v0l-77.636 79.257c-8.381-2.324-17.058-3.975-26.131-3.975-56.553 0-102.414 46.921-102.414 104.552 0 9.297 1.584 18.189 3.795 26.744v0zM512.025 761.574c193.776 0 371.68-117.554 511.972-313.591-48.997-68.444-102.646-127.053-159.857-174.715v0l-148.639 151.743c0.825 7.545 1.32 15.225 1.32 22.973 0 115.467-91.691 209.073-204.795 209.073-7.589 0-15.111-0.505-22.502-1.348v0l-90.305 92.225c36.855 8.858 74.501 13.642 112.808 13.642z" />
<glyph unicode="&#xe927;" glyph-name="eye" d="M511.984 760.887c193.779 0 371.688-117.285 512.014-312.871-140.327-195.586-318.236-312.904-512.014-312.904-193.746 0-371.621 117.318-511.982 312.904 140.361 195.586 318.236 312.871 511.982 312.871zM511.984 656.609c-113.106 0-204.799-93.39-204.799-208.591s91.693-208.591 204.799-208.591c113.106 0 204.799 93.39 204.799 208.591s-91.693 208.591-204.799 208.591zM511.984 552.316c56.488 0 102.416-46.712 102.416-104.313 0-57.5-45.929-104.28-102.416-104.28-56.553 0-102.384 46.78-102.384 104.28 0 57.601 45.83 104.313 102.384 104.313z" />
<glyph unicode="&#xe928;" glyph-name="facebook" d="M749.942 628.416h-162.112v106.304c0 39.872 26.496 49.216 45.12 49.216h114.304v175.488l-157.504 0.576c-174.784 0-214.528-130.88-214.528-214.592v-116.992h-101.184v-180.736h101.184v-511.68h212.608v511.68h143.488l18.624 180.736z" />
<glyph unicode="&#xe929;" glyph-name="filters" d="M284.462 703.977c-47.144 0-85.344 38.2-85.344 85.347 0 47.109 38.199 85.31 85.344 85.31 47.108 0 85.344-38.2 85.344-85.31 0-47.146-38.236-85.347-85.344-85.347zM995.515 846.186h-550.3c-23.426 66.283-86.444 113.795-160.753 113.795-74.346 0-137.327-47.513-160.753-113.795h-95.242c-15.617 0-28.448-12.795-28.448-28.412v-56.898c0-15.654 12.831-28.449 28.448-28.449h95.242c23.426-66.283 86.408-113.795 160.753-113.795 74.309 0 137.327 47.513 160.753 113.795h550.3c15.654 0 28.448 12.795 28.448 28.449v56.898c0 15.618-12.795 28.412-28.448 28.412zM398.236 277.332c74.309 0 137.327-47.513 160.717-113.795h436.581c15.617 0 28.448-12.795 28.448-28.412v-56.898c0-15.654-12.831-28.449-28.448-28.449h-436.581c-23.388-66.246-86.408-113.759-160.717-113.759-74.346 0-137.327 47.513-160.79 113.759h-208.961c-15.654 0-28.448 12.795-28.448 28.449v56.898c0 15.618 12.795 28.412 28.448 28.412h208.961c23.462 66.283 86.444 113.795 160.79 113.795zM398.236 191.985c-47.144 0-85.344-38.2-85.344-85.31 0-47.146 38.199-85.347 85.344-85.347 47.108 0 85.344 38.2 85.344 85.347 0 47.109-38.236 85.31-85.344 85.31zM739.538 618.627c74.346 0 137.327-47.475 160.753-113.759h95.242c15.617 0 28.448-12.795 28.448-28.412v-56.898c0-15.654-12.831-28.449-28.448-28.449h-95.242c-23.426-66.246-86.408-113.795-160.753-113.795-74.309 0-137.327 47.549-160.753 113.795h-550.3c-15.654 0-28.448 12.795-28.448 28.449v56.898c0 15.618 12.795 28.412 28.448 28.412h550.3c23.426 66.283 86.444 113.759 160.753 113.759zM739.538 533.317c-47.144 0-85.344-38.2-85.344-85.31 0-47.146 38.199-85.347 85.344-85.347 47.108 0 85.344 38.2 85.344 85.347 0 47.109-38.236 85.31-85.344 85.31z" />
<glyph unicode="&#xe92d;" glyph-name="folder" d="M0.034 74.684c0-13.665 11.548-24.892 25.603-24.892h972.757c14.055 0 25.603 11.228 25.603 24.892v597.312c0 13.665-11.548 24.86-25.603 24.86h-537.569l-153.587 149.352h-281.602c-14.055 0-25.603-11.196-25.603-24.892v-746.632z" />
<glyph unicode="&#xe934;" glyph-name="heart" d="M940.685 419.055c111.082 109.061 111.082 286.080 0 395.179-111.010 109.025-291.198 108.989-402.206-0.072-9.789-9.564-18.403-19.885-26.433-30.459-8.065 10.611-16.717 20.896-26.506 30.532-111.010 109.025-291.198 108.989-402.206-0.072-111.119-109.135-111.082-286.044-0.036-395.071l426.696-419.105 430.692 419.069z" />
<glyph unicode="&#xe939;" glyph-name="instagram" d="M572.131 959.974c85.777-0.191 105.449-0.938 150.944-3.018 54.53-2.496 91.714-11.136 124.292-23.809 33.666-13.121 62.21-30.593 90.691-59.073s45.954-56.961 59.073-90.691c12.672-32.576 21.313-69.763 23.809-124.292 0.521-11.373 0.957-21.134 1.322-30.715l0.405-11.505c0.87-27.076 1.22-57.264 1.316-122.096v-93.502c-0.090-60.183-0.398-90.525-1.137-116.24l-0.374-11.633c-0.405-11.487-0.909-22.816-1.533-36.465-2.496-54.53-11.136-91.779-23.809-124.292-13.121-33.729-30.593-62.21-59.073-90.691s-57.026-46.017-90.691-59.073c-32.576-12.672-69.763-21.313-124.292-23.809-47.769-2.184-67.068-2.898-164.318-3.042h-93.522c-60.203 0.090-90.535 0.398-116.255 1.137l-11.634 0.374c-11.492 0.405-22.828 0.909-36.492 1.533-54.465 2.496-91.714 11.136-124.228 23.809-33.666 13.056-62.274 30.593-90.691 59.073-28.481 28.481-46.017 56.961-59.073 90.691-12.672 32.513-21.313 69.763-23.809 124.292-2.081 45.495-2.826 65.211-3.018 150.966v120.247c0.191 85.777 0.938 105.449 3.018 150.944 2.496 54.53 11.136 91.714 23.809 124.292 13.056 33.729 30.593 62.21 59.073 90.691 28.417 28.481 57.026 45.954 90.691 59.073 32.513 12.672 69.763 21.313 124.228 23.809 45.547 2.081 65.228 2.826 151.008 3.018zM543.754 867.789h-63.516c-73.576-0.066-105.23-0.398-133.619-1.31l-11.273-0.396c-9.402-0.357-19.015-0.783-30.268-1.29-49.921-2.304-76.994-10.625-95.043-17.665-23.936-9.281-40.962-20.353-58.881-38.274s-29.057-34.945-38.337-58.881c-6.977-18.049-15.296-45.121-17.6-95.043-0.416-9.003-0.777-16.955-1.089-24.59l-0.624-16.951c-0.915-28.39-1.223-60.044-1.283-133.619v-63.516c0.060-73.576 0.368-105.23 1.283-133.619l0.399-11.273c0.362-9.402 0.795-19.015 1.316-30.268 2.304-49.921 10.625-77.059 17.6-95.043 9.281-23.936 20.417-40.962 38.337-58.881s34.945-28.993 58.881-38.274c18.049-7.040 45.121-15.36 95.043-17.665 47.265-2.129 65.571-2.835 160.992-2.979h91.851c95.421 0.144 113.727 0.851 160.992 2.979 49.857 2.304 76.994 10.625 95.043 17.665 23.936 9.281 40.962 20.353 58.881 38.274s28.993 34.945 38.337 58.881c6.977 17.984 15.296 45.121 17.6 95.043 2.027 45.015 2.72 63.762 2.895 147.874v118.088c-0.176 84.112-0.869 102.86-2.895 147.874-2.304 49.921-10.625 76.994-17.6 95.043-9.344 23.936-20.417 40.962-38.337 58.881s-34.945 28.993-58.881 38.274c-18.049 7.040-45.186 15.36-95.043 17.665-11.253 0.507-20.866 0.933-30.268 1.29l-11.273 0.396c-28.39 0.912-60.044 1.244-133.619 1.31zM511.983 710.895c145.221 0 262.92-117.635 262.92-262.856 0-145.284-117.7-262.92-262.92-262.92s-262.92 117.635-262.92 262.92c0 145.221 117.7 262.856 262.92 262.856zM511.983 618.668c-94.275 0-170.693-76.418-170.693-170.629 0-94.275 76.418-170.693 170.693-170.693s170.693 76.418 170.693 170.693c0 94.21-76.418 170.629-170.693 170.629zM785.304 782.768c33.921 0 61.442-27.521 61.442-61.442s-27.521-61.442-61.442-61.442c-33.921 0-61.442 27.521-61.442 61.442s27.521 61.442 61.442 61.442z" />
<glyph unicode="&#xe93b;" glyph-name="link-away" d="M1023.996 561.757l-455.101 398.203v-232.903c-568.857-136.632-568.857-791.055-568.857-791.055s198.002 460.013 568.857 460.013v-232.463l455.101 398.203z" />
<glyph unicode="&#xe93c;" glyph-name="link" d="M309.164 570.216l81.155-81.183-263.724-263.899 162.272-162.402 263.688 263.899 81.155-81.183-283.985-284.214c-16.23-16.245-37.823-25.199-60.857-25.199-22.997 0-44.626 8.954-60.857 25.199v0l-202.832 202.994c-16.23 16.245-25.141 37.89-25.141 60.905s8.911 44.662 25.141 60.905v0l283.985 284.176zM643.566 661.278l81.118-81.183-344.251-344.526-81.118 81.22 344.251 344.49zM674.275 935.63c32.462 32.488 89.251 32.488 121.713 0v0l202.832-202.994c16.23-16.245 25.178-37.854 25.178-60.905s-8.947-44.662-25.178-60.905v0l-284.022-284.176-81.080 81.183 263.688 263.899-162.272 162.402-263.688-263.936-81.118 81.22z" />
<glyph unicode="&#xe93d;" glyph-name="linkedin" d="M771.237 634.418c-116.482 0-168.644-63.938-197.892-108.994v-2.176h-1.408c0.512 0.64 1.024 1.472 1.408 2.176v93.506h-219.462c2.816-61.89 0-660.304 0-660.304h219.462v368.776c0 19.84 1.472 39.36 7.232 53.506 15.936 39.36 52.098 80.386 112.642 80.386 79.49 0 111.298-60.674 111.298-149.38v-353.288h219.462v378.57c0 202.884-108.354 297.224-252.742 297.224zM124.098 937.396c-75.010 0-124.098-49.346-124.098-114.178 0-63.298 47.618-114.114 121.218-114.114h1.472c76.546 0 124.162 50.818 124.162 114.114-1.408 64.834-47.618 114.178-122.754 114.178zM12.883-41.399h219.59v660.304h-219.59v-660.304z" />
<glyph unicode="&#xe93e;" glyph-name="lock" d="M362.641 550.412v153.587c0 84.696 66.98 153.587 149.325 153.587s149.359-68.891 149.359-153.587v-153.587h-298.684zM511.968 217.636c-41.221 0-74.647 34.38-74.647 76.777 0 42.43 33.425 76.809 74.647 76.809 41.253 0 74.679-34.38 74.679-76.809 0-42.397-33.425-76.777-74.679-76.777v0zM885.299 550.412h-124.433v153.587c0 141.147-111.665 255.999-248.898 255.999s-248.898-114.852-248.898-255.999v-153.587h-124.401c-13.698 0-24.892-11.548-24.892-25.603v-179.19c0-226.205 178.26-409.585 398.192-409.585s398.224 183.38 398.224 409.585v179.19c0 14.055-11.196 25.603-24.892 25.603v0z" />
<glyph unicode="&#xe944;" glyph-name="pause" d="M362.151 903.021v-910.045c0-15.14-4.85-29.578-13.695-40.33-8.75-10.627-20.637-16.64-33.097-16.64h-187.26c-25.868 0-46.792 25.541-46.792 56.97v910.045c0 31.429 20.922 56.964 46.792 56.964h187.26c12.459 0 24.348-6.008 33.097-16.639 8.844-10.746 13.695-25.189 13.695-40.325zM942.69 903.021v-910.045c0-15.14-4.849-29.578-13.693-40.33-8.756-10.627-20.641-16.64-33.097-16.64h-187.262c-25.869 0-46.792 25.541-46.792 56.97v910.045c0 31.429 20.922 56.964 46.792 56.964h187.262c12.456 0 24.341-6.008 33.097-16.639 8.842-10.746 13.693-25.189 13.693-40.325z" />
<glyph unicode="&#xe947;" glyph-name="pin" d="M511.996 422.42c-74.634 0-135.092 57.31-135.092 127.983s60.46 128.015 135.092 128.015c74.634 0 135.092-57.343 135.092-128.015s-60.46-127.983-135.092-127.983zM817.705 835.567c-168.84 165.892-442.578 165.892-611.382 0-168.874-165.892-168.874-434.923 0-600.782l305.674-298.759 305.709 298.759c168.84 165.859 168.84 434.89 0 600.782z" />
<glyph unicode="&#xe948;" glyph-name="pinterest" d="M535.985 959.996c-279.486 0-420.35-200.319-420.35-367.421 0-101.183 38.208-191.166 120.383-224.703 13.44-5.503 25.6-0.192 29.44 14.719 2.752 10.303 9.151 36.352 12.031 47.232 3.904 14.719 2.431 19.903-8.448 32.767-23.68 27.967-38.784 64.063-38.784 115.327 0 148.672 111.167 281.727 289.534 281.727 157.951 0 244.734-96.511 244.734-225.407 0-169.599-75.072-312.766-186.495-312.766-61.567 0-107.519 50.944-92.8 113.344 17.664 74.496 51.904 154.879 51.904 208.703 0 48.127-25.792 88.319-79.296 88.319-62.911 0-113.471-65.088-113.471-152.255 0-55.552 18.816-93.055 18.816-93.055s-64.384-272.766-75.712-320.511c-22.464-95.167-3.391-211.775-1.728-223.551 0.895-6.976 9.919-8.64 14.016-3.328 5.695 7.552 80.64 100.031 106.175 192.447 7.168 26.176 41.344 161.728 41.344 161.728 20.479-39.040 80.191-73.344 143.68-73.344 189.054 0 317.374 172.35 317.374 403.070 0 174.462-147.775 336.958-372.35 336.958z" />
<glyph unicode="&#xe949;" glyph-name="play" d="M868.64 470.255l-3.358 2.419-675.654 484.862c-3.682 1.558-7.647 2.419-11.894 2.419-17.314 0-31.394-14.222-31.394-31.806v-960.297c0-17.584 14.078-31.806 31.394-31.806 4.248 0 8.212 0.902 11.894 2.419l679.012 487.281c5.542 5.737 9.063 13.566 9.063 22.255s-3.519 16.517-9.063 22.255z" />
<glyph unicode="&#xe94a;" glyph-name="plus" d="M1023.996 504.878h-455.101v455.101h-113.757v-455.101h-455.101v-113.793h455.101v-455.063h113.757v455.063h455.101z" />
<glyph unicode="&#xe94b;" glyph-name="printer" d="M796.439 163.561v-227.558h-568.878v227.558h568.878zM767.99 959.996c15.654 0 28.449-12.795 28.449-28.449v0-312.87h199.109c15.654 0 28.449-12.795 28.449-28.449v0-511.978c0-15.654-12.795-28.449-28.449-28.449v0h-142.21v142.21c0 15.618-12.831 28.413-28.449 28.413v0h-625.777c-15.618 0-28.449-12.795-28.449-28.413v0-142.21h-142.21c-15.654 0-28.449 12.795-28.449 28.449v0 511.978c0 15.654 12.795 28.449 28.449 28.449v0h199.109v312.87c0 15.654 12.795 28.449 28.449 28.449v0zM910.2 504.917h-113.797v-56.899h113.797v56.899zM739.54 903.099h-455.117v-284.421h455.117v284.421z" />
<glyph unicode="&#xe953;" glyph-name="search" d="M113.818 504.886c0 188.215 153.094 341.311 341.311 341.311s341.347-153.094 341.347-341.311c0-188.215-153.132-341.347-341.347-341.347s-341.311 153.132-341.311 341.347v0zM1023.992 16.455l-209.808 209.808c59.976 77.061 96.050 173.625 96.050 278.62 0 250.942-204.163 455.105-455.105 455.105s-455.105-204.163-455.105-455.105c0-250.942 204.163-455.105 455.105-455.105 104.996 0 201.524 36.111 278.62 96.050l209.808-209.808 80.434 80.434z" />
<glyph unicode="&#xe955;" glyph-name="share" d="M791.98 21.333c-46.373 0-84.013 38.199-84.013 85.344 0 47.108 37.64 85.307 84.013 85.307s84.013-38.199 84.013-85.307c0-47.145-37.64-85.344-84.013-85.344zM232.003 362.674c-46.409 0-84.013 38.199-84.013 85.307s37.604 85.344 84.013 85.344c46.373 0 84.013-38.236 84.013-85.344s-37.64-85.307-84.013-85.307zM791.98 874.63c46.373 0 84.013-38.236 84.013-85.344s-37.64-85.307-84.013-85.307c-46.373 0-84.013 38.199-84.013 85.307s37.64 85.344 84.013 85.344zM791.98 277.33c-40.635 0-77.95-14.7-107.001-39.116l-288.343 175.747c2.202 10.998 3.357 22.4 3.357 34.020 0 11.658-1.155 23.022-3.357 34.020l288.343 175.747c29.051-24.415 66.366-39.116 107.001-39.116 92.782 0 167.989 76.399 167.989 170.652s-75.208 170.689-167.989 170.689c-92.782 0-167.989-76.436-167.989-170.689 0-11.621 1.155-23.022 3.357-34.020l-288.343-175.711c-29.051 24.415-66.366 39.079-107.001 39.079-92.782 0-167.989-76.399-167.989-170.652s75.208-170.652 167.989-170.652c40.635 0 77.95 14.7 107.001 39.116l288.343-175.747c-2.202-10.998-3.357-22.4-3.357-34.020 0-94.253 75.208-170.652 167.989-170.652s167.989 76.399 167.989 170.652c0 94.216-75.208 170.652-167.989 170.652z" />
<glyph unicode="&#xe959;" glyph-name="star" d="M511.982 959.978l142.211-398.203h369.769l-312.87-227.55 117.318-398.203-316.425 227.55-316.425-227.55 117.318 398.203-312.87 227.55h369.769z" />
<glyph unicode="&#xe95c;" glyph-name="tick" d="M354.765 64.016l-354.761 363.355 80.836 82.702 273.926-280.541 588.361 602.451 80.836-82.777z" />
<glyph unicode="&#xe95f;" glyph-name="twitter" d="M1023.97 765.561c-37.63-16.703-78.14-27.966-120.635-33.087 43.39 25.983 76.669 67.197 92.412 116.219-40.639-24.063-85.628-41.535-133.435-50.942-38.335 40.83-92.989 66.301-153.338 66.301-116.027 0-210.104-94.012-210.104-210.040 0-16.448 1.856-32.511 5.44-47.87-174.585 8.768-329.458 92.348-433.007 219.447-18.047-30.975-28.414-67.070-28.414-105.596 0-72.893 37.055-137.146 93.437-174.841-34.431 1.088-66.813 10.56-95.164 26.303v-2.688c0-101.756 72.445-186.681 168.441-205.944-17.535-4.864-36.095-7.424-55.293-7.424-13.567 0-26.687 1.344-39.486 3.775 26.687-83.452 104.316-144.186 196.152-145.851-71.869-56.382-162.361-89.917-260.853-89.917-16.896 0-33.599 0.96-50.11 2.88 92.989-59.582 203.384-94.333 322.035-94.333 386.417 0 597.736 320.115 597.736 597.672 0 9.151-0.192 18.176-0.64 27.199 41.087 29.631 76.733 66.622 104.828 108.732z" />
<glyph unicode="&#xe960;" glyph-name="unlock" d="M512 217.589c-41.221 0-74.678 34.381-74.678 76.814 0 42.4 33.457 76.781 74.678 76.781 41.253 0 74.678-34.381 74.678-76.781 0-42.433-33.425-76.814-74.678-76.814v0zM760.896 703.983c0 141.19-111.665 256.015-248.896 256.015s-248.864-114.826-248.864-256.015v-153.597h-124.464c-13.665 0-24.893-11.516-24.893-25.572v-179.234c0-226.22 178.323-409.578 398.221-409.578 219.93 0 398.221 183.358 398.221 409.578v179.234c0 14.056-11.228 25.572-24.893 25.572h-522.653v153.597c0 84.733 66.98 153.597 149.325 153.597s149.325-68.862 149.325-153.597h99.572z" />
<glyph unicode="&#xe964;" glyph-name="volume-high" d="M456.133 903.962v-911.955l-285.060 227.988h-57.021c-62.716 0-114.037 51.315-114.037 114.015v0 227.954c0 62.735 51.327 114.015 114.037 114.015v0h57.021l285.060 227.988zM778.612 770.423c177.815-177.777 177.815-467.074 0-644.886v0l-80.607 80.625c133.362 133.335 133.362 350.303 0 483.671v0zM600.73 649.523c111.1-111.148 111.1-291.936-0.035-403.085v0l-80.641 80.625c66.68 66.664 66.68 175.171 0 241.874v0z" />
<glyph unicode="&#xe965;" glyph-name="volume-low" d="M456.079 903.996v-911.96l-285.048 227.99h-57.019c-62.713 0-113.997 51.316-113.997 114.015v0 227.955c0 62.735 51.284 114.015 113.997 114.015v0h57.019l285.048 227.99zM600.666 649.562c111.096-111.148 111.096-291.938-0.033-403.086v0l-80.604 80.626c66.644 66.664 66.644 175.173-0.033 241.876v0z" />
<glyph unicode="&#xe966;" glyph-name="volume-off" d="M455.66 899.753v-903.505l-283.579 225.877h-56.93c-62.656 0-115.141 50.838-115.141 112.956v0 225.84c0 62.156 52.488 112.956 115.141 112.956v0h56.93l283.579 225.877zM943.453 671.45l80.529-79.842-144.836-143.597 144.836-143.597-80.529-79.842-144.836 143.597-144.836-143.597-80.566 79.842 144.873 143.597-144.873 143.597 80.566 79.842 144.836-143.597 144.836 143.597z" />
<glyph unicode="&#xe968;" glyph-name="close" d="M632.195 448.071l366.608 365.771c33.407 33.411 33.407 87.605 0 121.098-33.487 33.411-87.677 33.411-121.084 0l-365.729-366.651-365.729 366.651c-33.407 33.411-87.595 33.411-121.084 0-33.407-33.491-33.407-87.687 0-121.098l366.608-365.771-366.608-365.771c-16.145-15.987-25.176-37.809-25.176-60.509 0-22.781 9.032-44.523 25.176-60.589 16.065-16.147 37.805-25.179 60.582-25.179 22.698 0 44.518 9.033 60.502 25.179l365.729 366.651 365.729-366.651c15.985-16.147 37.805-25.179 60.502-25.179 22.778 0 44.518 9.033 60.582 25.179 16.145 16.067 25.176 37.809 25.176 60.589 0 22.701-9.032 44.523-25.176 60.509l-366.604 365.771z" />
<glyph unicode="&#xe969;" glyph-name="youtube" d="M406.28 339.081v287.71l276.639-144.375-276.639-143.348zM1013.711 676.589c0 0-9.986 70.524-40.696 101.625-38.901 40.826-82.55 41.014-102.58 43.388-143.276 10.362-358.233 10.362-358.233 10.362h-0.449c0 0-214.885 0-358.174-10.362-20.030-2.374-63.606-2.562-102.58-43.388-30.71-31.101-40.696-101.625-40.696-101.625s-10.232-82.868-10.232-165.679v-77.687c0-82.868 10.232-165.738 10.232-165.738s9.986-70.524 40.696-101.625c38.974-40.769 90.105-39.48 112.884-43.764 81.913-7.8 348.129-10.232 348.129-10.232s215.145 0.318 358.425 10.68c20.030 2.374 63.678 2.562 102.58 43.33 30.71 31.101 40.696 101.625 40.696 101.625s10.232 82.868 10.232 165.738v77.687c0 82.811-10.232 165.679-10.232 165.679v0z" />
</font>
</defs>
</svg>
